#TITLE:PAPARAZZI;
#SUBTITLE:Expi3nze;
#ARTIST:SNSD;
#TITLETRANSLIT:;
#SUBTITLETRANSLIT:;
#ARTISTTRANSLIT:;
#CREDIT:;
#BANNER:bn.png;
#BACKGROUND:bg.png;
#LYRICSPATH:;
#CDTITLE:cdtitle.png;
#MUSIC:Paparazzi-snsd.mp3;
#OFFSET:-0.060;
#SAMPLESTART:52.618;
#SAMPLELENGTH:22.325;
#SELECTABLE:YES;
#BPMS:0.000=129.003,1.000=128.998,2.000=129.003,3.000=128.998,4.000=129.003,5.000=128.998,7.000=129.003,8.000=128.998,9.000=129.003,10.000=128.998,11.000=129.003,12.000=128.998,14.000=129.003,15.000=128.998,16.000=129.003,17.000=128.998,19.000=129.003,20.000=128.998,21.000=129.003,22.000=128.998,23.000=129.003,24.000=128.998,26.000=129.003,27.000=128.998,28.000=129.003,29.000=128.998,31.000=129.003,32.000=64.503,32.333=258.030,33.000=129.003,34.000=128.998,35.000=129.003,36.000=128.998,37.000=129.003,38.000=128.998,40.000=129.003,41.000=128.998,42.000=129.003,43.000=128.998,45.000=129.003,46.000=128.998,47.000=129.003,48.000=128.998,49.000=129.003,50.000=128.998,52.000=129.003,53.000=128.998,54.000=129.003,55.000=128.998,57.000=129.003,58.000=128.998,59.000=129.003,60.000=128.998,61.000=129.003,62.000=128.998,64.000=129.003,65.000=128.998,66.000=129.003,67.000=128.998,69.000=129.003,70.000=128.998,71.000=129.003,72.000=128.998,73.000=129.003,74.000=128.998,76.000=129.003,77.000=128.998,78.000=129.003,79.000=128.998,80.000=129.003,81.000=64.503,81.333=258.030,82.000=64.503,82.333=258.030,83.000=64.503,83.333=258.030,84.000=64.503,84.333=258.030,85.000=129.003,86.000=128.998,87.000=129.003,88.000=128.998,89.000=129.003,90.000=128.998,92.000=129.003,93.000=128.998,94.000=129.003,95.000=128.998,97.000=64.503,97.333=258.030,98.000=64.503,98.333=258.030,99.000=64.503,99.333=258.030,100.000=129.003,101.000=128.998,102.000=129.003,103.000=128.998,105.000=129.003,106.000=128.998,107.000=129.003,108.000=128.998,109.000=129.003,110.000=128.998,112.000=64.503,112.333=258.030,113.000=129.003,114.000=128.998,115.000=129.003,116.000=128.998,118.000=129.003,119.000=128.998,120.000=129.003,121.000=128.998,122.000=129.003,123.000=128.998,125.000=129.003,126.000=128.998,127.000=129.003,128.000=128.998,130.000=129.003,131.000=128.998,132.000=129.003,133.000=128.998,134.000=129.003,135.000=128.998,137.000=129.003,138.000=128.998,139.000=129.003,140.000=128.998,142.000=129.003,143.000=128.998,144.000=129.003,145.000=128.998,146.000=129.003,147.000=128.998,149.000=129.003,150.000=128.998,151.000=129.003,152.000=128.998,154.000=129.003,155.000=128.998,156.000=129.009,156.500=258.018,157.000=64.505,157.250=129.001,158.000=128.998,158.500=258.018,159.000=64.505,159.250=129.001,160.000=64.507,160.167=257.995,160.500=129.009,161.000=128.998,163.000=129.003,164.000=128.998,165.000=129.003,166.000=128.998,167.000=129.003,168.000=128.998,170.000=129.003,171.000=128.998,172.000=129.003,173.000=128.998,175.000=129.003,176.000=128.998,177.000=129.003,178.000=128.998,179.000=129.003,180.000=128.998,182.000=129.003,183.000=128.998,184.000=129.003,185.000=128.998,187.000=129.003,188.000=128.998,189.000=129.003,190.000=128.998,192.000=129.003,193.000=128.998,194.000=129.003,195.000=128.998,197.000=129.003,198.000=128.998,199.000=129.003,200.000=128.998,201.000=129.003,202.000=128.998,204.000=129.003,205.000=128.998,206.000=129.003,207.000=128.998,209.000=129.003,210.000=128.998,211.000=129.003,212.000=128.998,213.000=129.003,214.000=128.998,216.000=129.003,217.000=128.998,218.000=129.003,219.000=128.998,221.000=129.003,222.000=128.998,223.000=129.003,224.000=128.998,225.000=129.003,226.000=128.998,228.000=129.003,229.000=128.998,230.000=129.003,231.000=128.998,233.000=129.003,234.000=128.998,235.000=129.003,236.000=128.998,237.000=129.003,238.000=128.998,240.000=129.003,241.000=128.998,242.000=129.003,243.000=128.998,244.000=129.003,245.000=128.998,247.000=129.003,248.000=128.998,249.000=129.003,250.000=128.998,252.000=129.003,253.000=128.998,254.000=129.003,255.000=128.998,257.000=129.003,258.000=128.998,259.000=129.003,260.000=128.998,261.000=129.003,262.000=128.998,263.000=64.499,263.250=258.018,263.750=64.499,264.000=258.018,264.500=64.499,264.667=257.995,265.000=129.003,266.000=128.998,267.000=129.003,268.000=128.998,270.000=129.003,271.000=128.998,272.000=129.003,273.000=128.998,275.000=129.003,276.000=128.998,277.000=129.003,278.000=128.998,279.000=129.003,280.000=128.998,282.000=129.003,283.000=128.998,284.000=129.003,285.000=128.998,287.000=129.003,288.000=128.998,289.000=129.003,290.000=128.998,291.000=129.003,292.000=128.998,294.000=129.003,295.000=128.998,296.000=129.003,297.000=128.998,299.000=129.003,300.000=128.998,301.000=129.003,302.000=128.998,303.000=129.003,304.000=128.998,306.000=129.003,307.000=128.998,308.000=129.003,309.000=128.998,311.000=129.003,312.000=128.998,313.000=129.003,314.000=128.998,315.000=129.003,316.000=128.998,318.000=129.003,319.000=128.998,320.000=129.003,321.000=128.998,323.000=129.003,324.000=128.998,325.000=64.503,325.333=257.995,326.000=129.003,327.000=64.503,327.333=257.995,328.000=128.998,328.500=258.065,328.750=516.129,329.000=516.006,329.750=258.065,330.000=129.003,331.000=257.995,332.000=258.018,333.000=257.995,336.000=258.018,337.000=257.995,341.000=258.018,342.000=257.995;
#STOPS:;
#BGCHANGES:;
// cache tags:
#FIRSTBEAT:1.000;
#LASTBEAT:343.000;
#SONGFILENAME:Songs/SDO 7/PAPARAZZI - SNSD/Paparazzi-snsd.sm;
#HASMUSIC:1;
#HASBANNER:1;
#MUSICLENGTH:157.016;
// end cache tags

//---------------dance-single - ----------------
#NOTES:
     dance-single:
     :
     Hard:
     16:
     1.000,1.000,1.000,0.783,0.134,632.000,382.000,123.000,0.000,191.000:
0000
0000
2010
0000
0010
0010
0100
0000
,
0010
0000
3020
0000
1000
1000
0001
0000
,
1000
0000
1030
0000
0010
0010
1000
0000
,
0010
0000
0000
0010
0100
1000
0000
0010
,
0010
0000
1000
0000
1110
0000
0000
0010
1100
0000
0010
0100
0010
0000
1000
0100
,
0011
0000
0100
0000
1000
0000
0001
0001
1100
0000
0001
0001
0100
0000
0001
0000
,
0101
0000
0000
0000
0010
0000
0010
0100
1010
0000
0010
0100
0010
0000
1000
0000
,
1100
0000
1001
0000
0011
0000
0001
0010
1001
0000
1100
0000
1001
0000
0000
0000
,
2112
0000
3213
1010
0011
1001
0011
1001
,
1001
0000
1010
0000
0311
0000
0101
0000
1010
0000
0101
0000
0011
1000
0100
0001
,
1010
1010
0100
1010
0011
0110
1100
0110
,
0011
0000
1001
0000
0110
0000
1100
0000
0101
0000
1010
0000
0000
0100
0010
0000
,
0101
1010
0100
1010
0111
0101
0110
1100
,
1110
0000
0101
0000
1100
0000
0110
0000
1011
0000
1010
0000
1010
0000
0010
0001
,
1110
1010
0001
0011
1110
0101
1001
1010
,
1110
0000
0101
0000
1001
0000
0110
0000
1110
0000
0101
0000
1001
0000
1000
0010
,
0101
0010
0100
1000
0000
0000
0010
0000
0111
0000
1010
0000
1001
0000
0101
0000
,
1110
0101
1010
1001
0111
1010
1100
0110
,
1011
1001
1000
0110
0111
1100
1001
0010
,
1110
0110
0011
0110
1101
0101
1010
1010
,
0111
0101
2010
0000
3121
0000
0132
0000
,
2113
0000
3011
0110
1101
0102
0010
0100
,
1113
0100
0011
0011
1110
1001
0011
0100
,
1011
0100
1010
0000
1110
1010
0100
0010
,
1101
0102
1213
2310
,
3121
1100
1031
0110
0111
0200
0010
0010
,
1311
0100
0011
0110
1100
0101
1001
0110
,
1010
0101
0101
1001
1100
0110
2011
0000
,
0000
0000
3112
1100
0110
1010
1100
0110
,
0210
0020
2303
0101
0131
0110
0011
0110
,
0201
0001
3311
0110
1110
0101
0101
1010
,
1110
0101
2210
0000
3322
0000
2233
0000
,
3312
0100
1000
0110
1010
1010
1020
1200
,
1033
0301
0011
0110
1101
1001
0110
1001
,
1101
0000
1001
0110
1100
0110
0011
1010
,
1110
0011
0220
0000
2332
0000
3223
0000
,
1330
1000
1000
1000
1210
0000
0002
0000
1320
0000
2003
0000
0230
0000
3002
0000
,
1320
2003
0032
3200
1023
0302
2030
0113
,
3221
0000
1330
1100
1101
0110
1100
0010
,
1100
1110
0000
0010
1000
0111
0000
0010
,
1101
0001
2110
3010
1100
0001
0101
1000
,
1100
0000
0020
0000
1032
0000
0003
0000
1100
0000
0001
0000
1100
0000
0010
0100
,
0011
0100
2010
0001
3210
0000
1300
0000
1100
0000
0001
0000
1100
0000
0020
0000
,
1132
0000
0203
0000
0010
0000
0320
0000
1132
0000
0103
0010
0101
1000
0010
0100
,
1001
0010
0100
1000
0012
0000
1003
0000
1100
0000
0001
0000
0110
0000
0010
0000
,
0101
0200
0321
0130
0101
1000
0011
0100
,
2002
0200
3323
0030
0011
0110
1100
0001
,
1010
1001
1010
0101
1001
0110
1100
1100
,
0110
0011
2100
0000
3010
0010
0121
0000
,
0130
0010
1100
0001
1000
0011
0111
0010
,
0000
0000
0100
0001
1010
0000
1010
0000
1001
0000
0011
0000
1100
0000
0000
0000
,
0011
0000
1001
0000
1100
0000
0010
0000
0101
0000
1000
0001
1100
0000
0000
0000
,
0010
0000
0010
1000
1001
0000
0011
0000
1100
0000
0110
0000
0011
0000
0000
0000
,
1000
1000
0011
0100
1000
0110
1101
0000
,
1010
0000
2220
0000
3331
0110
1100
0010
,
0010
0100
0101
1000
0010
1100
1110
0100
,
0000
0000
0000
0010
0101
0000
0000
0101
1000
0000
0110
0000
1110
0000
0001
0000
,
0010
0000
0100
0000
1010
0001
1010
0001
1010
0100
1001
0010
0102
0010
1000
0100
,
2013
0100
0001
0000
3200
0000
0001
0000
0301
0000
0010
0000
0100
0000
0010
0000
,
0001
0000
1000
0000
0100
0000
0010
0000
0001
0000
0100
0000
1000
0100
0010
0100
,
0010
1000
0100
0010
0001
0100
0001
0010
,
0100
0000
1000
0000
0001
0000
1000
0000
0010
0000
0010
0000
1000
0010
0001
0100
,
0010
0100
1000
0001
0010
0100
1000
0010
,
0010
0001
1000
0100
0010
0001
0100
0010
,
1000
0001
1010
0100
1001
0001
0011
1000
,
0011
0000
0100
0000
1001
0000
1010
0000
1001
0000
0101
0000
1010
0000
0000
0101
,
0000
1001
0112
1100
0110
1010
1100
0110
,
0210
0020
2303
0101
0131
0110
0011
0110
,
0201
0001
3311
0110
1110
0101
0101
1010
,
1110
0101
2210
0000
3322
0000
2233
0000
,
3312
0100
1000
0110
1010
1010
1020
1200
,
1033
0301
0011
0110
1101
1001
0110
1001
,
1101
0000
1001
0110
1100
0110
0011
1010
,
1110
0011
0220
0000
2332
0000
3223
0000
,
1330
0000
1210
0002
1320
2003
0230
3002
,
1320
2003
0032
3200
1023
0302
2030
0113
,
3221
0000
1331
0110
1110
0110
0011
1010
,
1110
0011
1000
0110
0111
1001
1100
1001
,
0111
0110
1012
1100
1010
1010
1100
0110
,
0210
0020
2303
0101
0131
0110
0011
0110
,
0201
0001
3311
0110
1110
0101
0101
1010
,
1110
0101
2210
0000
3310
0010
2200
0000
,
3311
0000
2220
0000
,
0000
0000
0000
0000
,
0000
0000
0000
0000
,
0000
0000
0000
3330
,
0000
0000
0000
0000
,
0000
0000
0000
0000
,
0000
0000
0000
0000
,
0000
0000
0000
0000
,
0000
0000
0000
0000
,
0000
0000
0000
0000
,
0000
0000
0000
0000
;
